Login
Username:
Password:
[Signup]
[Recover Account]


Browse Torrents

Poll


You must be logged in to view polls



Latest Torrents
102 Not Out 2018 U...
- [Size: 6.21 GB]

Kuldip Patwal 2018...
- [Size: 4.08 GB]

Satans.Slaves.2017...
- [Size: 455.10 MB]

Satans.Slaves.2017...
- [Size: 4.43 GB]

Deadpool 2 (2018) ...
- [Size: 1.27 GB]


Torrent Details For "Young Adult 2011 720p BluRay x264 Dual Audio [Hindi 2.0 - English 2.0] ESub [MW]"

Young Adult 2011 720p BluRay x264 Dual Audio [Hindi 2.0 - English 2.0] ESub [MW]

Download this torrent | Magnet Download
Health:
Seeds: 136
Leechers: 452
Completed: 92 
Last Checked: 10-08-2018 09:17:51
External Torrent
Update Stats



Poster
No poster



Details
Name:Young Adult 2011 720p BluRay x264 Dual Audio [Hindi 2.0 - English 2.0] ESub [MW]
Description:

 


General
Format                                   : Matroska
Format version                           : Version 4 / Version 2
File size                                : 753 MiB
Duration                                 : 1 h 33 min
Overall bit rate                         : 1 123 kb/s

Video
ID                                       : 2
Format                                   : AVC
Format/Info                              : Advanced Video Codec
Format profile                           : [email protected]
Format settings                          : CABAC / 5 Ref Frames
Format settings, CABAC                   : Yes
Format settings, RefFrames               : 5 frames
Codec ID                                 : V_MPEG4/ISO/AVC
Duration                                 : 1 h 33 min
Bit rate                                 : 835 kb/s
Width                                    : 1 280 pixels
Height                                   : 720 pixels
Display aspect ratio                     : 16:9
Frame rate mode                          : Constant
Frame rate                               : 23.976 (24000/1001) FPS
Color space                              : YUV
Chroma subsampling                       : 4:2:0
Bit depth                                : 8 bits
Scan type                                : Progressive
Bits/(Pixel*Frame)                       : 0.038
Stream size                              : 558 MiB (74%)
Writing library                          : x264 core 120 r2164 da19765
Default                                  : Yes
Forced                                   : No

Audio #1
ID                                       : 1
Format                                   : AAC
Format/Info                              : Advanced Audio Codec
Format profile                           : LC
Codec ID                                 : A_AAC-2
Duration                                 : 1 h 33 min
Bit rate                                 : 224 kb/s
Channel(s)                               : 2 channels
Channel positions                        : Front: L R
Sampling rate                            : 48.0 kHz
Frame rate                               : 46.875 FPS (1024 SPF)
Compression mode                         : Lossy
Stream size                              : 150 MiB (20%)
Language                                 : Hindi
Default                                  : Yes
Forced                                   : No

Audio #2
ID                                       : 3
Format                                   : AAC
Format/Info                              : Advanced Audio Codec
Format profile                           : HE-AAC / LC
Format settings                          : Explicit
Codec ID                                 : A_AAC-2
Duration                                 : 1 h 33 min
Bit rate                                 : 64.0 kb/s
Channel(s)                               : 2 channels
Channel positions                        : Front: L R
Sampling rate                            : 48.0 kHz / 24.0 kHz
Frame rate                               : 23.438 FPS (1024 SPF)
Compression mode                         : Lossy
Stream size                              : 42.9 MiB (6%)
Language                                 : English
Default                                  : No
Forced                                   : No

Text
ID                                       : 4
Format                                   : UTF-8
Codec ID                                 : S_TEXT/UTF8
Codec ID/Info                            : UTF-8 Plain Text
Duration                                 : 1 h 28 min
Bit rate                                 : 56 b/s
Count of elements                        : 1089
Stream size                              : 36.2 KiB (0%)
Default                                  : Yes
Forced                                   : No


 http://pichub.site/image/RHeyk
 http://pichub.site/image/RHqFv
 http://pichub.site/image/RTfdd
 http://pichub.site/image/RTJu9
 http://pichub.site/image/RTM3u
 http://pichub.site/image/RTaIR

Category:Movies > Hollywood Dub
Lang:Hindi
Total Size:752.54 MB
Info Hash:66e4be870392ee110802cd8b69f83ca5719c015e
Added By:Freaky
Date Added:10-08-2018 09:17:39
Downloads:394

Ratings:Not Yet Rated (Log in to rate it)


Tracker:
udp://tracker.coppersurfer.tk:6969/announce


File List: 


Comments

No comments still posted

Copyright 2018 DownloadHD -|- Page Generated In 0.652070 secs.
-|- RSS Feed -|- Feed Info