Login
Username:
Password:
[Signup]
[Recover Account]


Browse Torrents

Poll


You must be logged in to view polls



Latest Torrents
Big.Brother.US.S20...
- [Size: 973.16 MB]

Running.for.Grace....
- [Size: 1.38 GB]

Undiscovered Tomb ...
- [Size: 571.70 MB]

Down.a.Dark.Hall.2...
- [Size: 1.36 GB]

Toilet.Ek.Prem.Kat...
- [Size: 6.54 GB]


Torrent Details For "Laser Mission 1989 x264 720p HD Esub English Hindi Telugu Russian GOPISAHI"

Laser Mission 1989 x264 720p HD Esub English Hindi Telugu Russian GOPISAHI

Download this torrent | Magnet Download
Health:
Seeds: 19
Leechers: 77
Completed: 18 
Last Checked: 10-08-2018 04:17:17
External Torrent
Update Stats



Poster
No poster



Details
Name:Laser Mission 1989 x264 720p HD Esub English Hindi Telugu Russian GOPISAHI
Description:
 http://www.gopisahi.pw/

Format                         : Matroska

Format version                 : Version 4 / Version 2

File size                      : 597 MiB

Duration                       : 1 h 24 min

Overall bit rate               : 988 kb/s

Movie name                     : Laser Mission 1989 GOPISAHI


Video

Format                         : AVC

Format/Info                    : Advanced Video Codec

Format profile                 : [email protected]

Codec ID                       : V_MPEG4/ISO/AVC

Duration                       : 1 h 24 min

Bit rate                       : 599 kb/s

Width                          : 1 280 pixels

Height                         : 712 pixels

Display aspect ratio           : 16:9

Frame rate mode                : Constant

Frame rate                     : 25.000 FPS

Color space                    : YUV

Chroma subsampling             : 4:2:0

Bit depth                      : 8 bits

Scan type                      : Progressive

Bits/(Pixel*Frame)             : 0.026

Stream size                    : 362 MiB (61%)

Title                          : GOPISAHI

Writing library                : x264 core 155 r2901 7d0ff22


Audio #1

Format                         : AAC

Format/Info                    : Advanced Audio Codec

Duration                       : 1 h 24 min

Bit rate                       : 96.0 kb/s

Channel(s)                     : 2 channels

Channel positions              : Front: L R

Sampling rate                  : 48.0 kHz

Frame rate                     : 46.875 FPS (1024 SPF)

Compression mode               : Lossy

Stream size                    : 58.1 MiB (10%)

Title                          : GOPISAHI

Language                       : Hindi


Audio #2

Format                         : AAC

Format/Info                    : Advanced Audio Codec

Duration                       : 1 h 24 min

Bit rate                       : 96.0 kb/s

Channel(s)                     : 2 channels

Channel positions              : Front: L R

Sampling rate                  : 48.0 kHz

Frame rate                     : 46.875 FPS (1024 SPF)

Compression mode               : Lossy

Stream size                    : 58.1 MiB (10%)

Title                          : GOPISAHI

Language                       : Telugu


Audio #3

Format                         : AAC

Duration                       : 1 h 24 min

Bit rate                       : 96.0 kb/s

Channel(s)                     : 2 channels

Channel positions              : Front: L R

Sampling rate                  : 48.0 kHz

Frame rate                     : 46.875 FPS (1024 SPF)

Compression mode               : Lossy

Stream size                    : 57.9 MiB (10%)

Title                          : GOPISAHI

Language                       : English


Audio #4

Format                         : AAC

Format/Info                    : Advanced Audio Codec

Duration                       : 1 h 24 min

Bit rate                       : 96.0 kb/s

Channel(s)                     : 2 channels

Channel positions              : Front: L R

Sampling rate                  : 48.0 kHz

Frame rate                     : 46.875 FPS (1024 SPF)

Compression mode               : Lossy

Stream size                    : 58.0 MiB (10%)

Title                          : GOPISAHI

Language                       : Russian


Text

Language                       : English


Category:Movies > Hollywood Dub
Lang:Hindi
Total Size:596.75 MB
Info Hash:41fd9177287a23c9ba1266e07ad06e2e2a30edad
Added By:gopisahi
Date Added:10-08-2018 03:38:29
Downloads:184

Ratings:Not Yet Rated (Log in to rate it)


Tracker:
udp://tracker.torrent.eu.org:451/announce

This Torrent also has backup trackers
URLSeedersLeechersCompleted
http://retracker.spb.ru:80/announce000
http://t.nyaatracker.com:80/announce000
http://retracker.mgts.by:80/announce000
http://tracker2.itzmx.com:6961/announce000


File List: 


Comments

No comments still posted

Copyright 2018 DownloadHD -|- Page Generated In 0.477251 secs.
-|- RSS Feed -|- Feed Info