Login
Username:
Password:
[Signup]
[Recover Account]


Browse Torrents

Poll


You must be logged in to view polls



Latest Torrents
Big.Brother.US.S20...
- [Size: 973.16 MB]

Running.for.Grace....
- [Size: 1.38 GB]

Undiscovered Tomb ...
- [Size: 571.70 MB]

Down.a.Dark.Hall.2...
- [Size: 1.36 GB]

Toilet.Ek.Prem.Kat...
- [Size: 6.54 GB]


Torrent Details For "Abraham Lincoln Vampire Hunter 2012 x264 720p Esub BluRay Dual Audio English Hindi GOPISAHI"

Abraham Lincoln Vampire Hunter 2012 x264 720p Esub BluRay Dual Audio English Hindi GOPISAHI

Download this torrent | Magnet Download
Health:
Seeds: 21
Leechers: 121
Completed: 20 
Last Checked: 10-08-2018 04:17:30
External Torrent
Update Stats



Poster
No poster



Details
Name:Abraham Lincoln Vampire Hunter 2012 x264 720p Esub BluRay Dual Audio English Hindi GOPISAHI
Description:

 http://www.gopisahi.pw/

Format                         : Matroska

Format version                 : Version 4 / Version 2

File size                      : 815 MiB

Duration                       : 1 h 45 min

Overall bit rate               : 1 085 kb/s

Movie name                     : Abraham Lincoln Vampire Hunter 2012 GOPISAHI


Video

Format                         : AVC

Format/Info                    : Advanced Video Codec

Codec ID                       : V_MPEG4/ISO/AVC

Duration                       : 1 h 45 min

Bit rate                       : 904 kb/s

Width                          : 1 280 pixels

Height                         : 528 pixels

Display aspect ratio           : 2.40:1

Frame rate mode                : Constant

Frame rate                     : 23.976 (24000/1001) FPS

Color space                    : YUV

Chroma subsampling             : 4:2:0

Bit depth                      : 8 bits

Scan type                      : Progressive

Bits/(Pixel*Frame)             : 0.056

Stream size                    : 679 MiB (83%)

Title                          : GOPISAHI

Writing library                : x264 core 125 r2200 999b753


Audio #1

Format                         : AAC

Format/Info                    : Advanced Audio Codec

Duration                       : 1 h 44 min

Bit rate                       : 86.7 kb/s

Channel(s)                     : 6 channels

Channel positions              : Front: L C R, Side: L R, LFE

Sampling rate                  : 44.1 kHz

Frame rate                     : 43.066 FPS (1024 SPF)

Compression mode               : Lossy

Delay relative to video        : -125 ms

Stream size                    : 65.1 MiB (8%)

Title                          : GOPISAHI

Language                       : Hindi


Audio #2

Format                         : AAC

Format/Info                    : Advanced Audio Codec

Duration                       : 1 h 45 min

Bit rate                       : 92.0 kb/s

Channel(s)                     : 2 channels

Channel positions              : Front: L R

Sampling rate                  : 48.0 kHz

Frame rate                     : 46.875 FPS (1024 SPF)

Compression mode               : Lossy

Delay relative to video        : -125 ms

Stream size                    : 69.1 MiB (8%)

Title                          : GOPISAHI

Language                       : English


Text

Language                       : English


Category:Movies > Hollywood Dub
Lang:Punjabi
Total Size:814.97 MB
Info Hash:522f04b60f83622e6f78ef5f7993ba167a3f09c4
Added By:gopisahi
Date Added:10-08-2018 03:18:45
Downloads:150

Ratings:Not Yet Rated (Log in to rate it)


Tracker:
udp://tracker.torrent.eu.org:451/announce

This Torrent also has backup trackers
URLSeedersLeechersCompleted
http://retracker.spb.ru:80/announce000
http://t.nyaatracker.com:80/announce000
http://retracker.mgts.by:80/announce000
http://tracker2.itzmx.com:6961/announce000


File List: 


Comments

No comments still posted

Copyright 2018 DownloadHD -|- Page Generated In 0.521023 secs.
-|- RSS Feed -|- Feed Info