Login
Username:
Password:
[Signup]
[Recover Account]


Browse Torrents

Poll


You must be logged in to view polls



Latest Torrents
102 Not Out 2018 U...
- [Size: 6.21 GB]

Kuldip Patwal 2018...
- [Size: 4.08 GB]

Satans.Slaves.2017...
- [Size: 455.10 MB]

Satans.Slaves.2017...
- [Size: 4.43 GB]

Deadpool 2 (2018) ...
- [Size: 1.27 GB]


Torrent Details For "Looper 2012 x264 720p Esub BluRay Dual Audio English Hindi GOPISAHI"

Looper 2012 x264 720p Esub BluRay Dual Audio English Hindi GOPISAHI

Download this torrent | Magnet Download
Health:
Seeds: 674
Leechers: 958
Completed: 494 
Last Checked: 09-08-2018 10:30:21
External Torrent
Update Stats



Poster
No poster



Details
Name:Looper 2012 x264 720p Esub BluRay Dual Audio English Hindi GOPISAHI
Description:
 http://www.gopisahi.pw/

Format                         : Matroska

Format version                 : Version 4 / Version 2

File size                      : 852 MiB

Duration                       : 1 h 58 min

Overall bit rate               : 1 002 kb/s

Movie name                     : Looper 2012 GOPISAHI


Video

Format                         : AVC

Format/Info                    : Advanced Video Codec

Codec ID                       : V_MPEG4/ISO/AVC

Duration                       : 1 h 58 min

Bit rate                       : 842 kb/s

Width                          : 1 280 pixels

Height                         : 544 pixels

Display aspect ratio           : 2.35:1

Frame rate mode                : Constant

Frame rate                     : 23.976 (24000/1001) FPS

Color space                    : YUV

Chroma subsampling             : 4:2:0

Bit depth                      : 8 bits

Scan type                      : Progressive

Bits/(Pixel*Frame)             : 0.050

Stream size                    : 716 MiB (84%)

Title                          : GOPISAHI

Writing library                : x264 core 125 r2200 999b753


Audio #1

Format                         : AAC

Format/Info                    : Advanced Audio Codec

Duration                       : 1 h 51 min

Bit rate                       : 72.0 kb/s

Channel(s)                     : 6 channels

Channel positions              : Front: L C R, Side: L R, LFE

Sampling rate                  : 48.0 kHz

Frame rate                     : 46.875 FPS (1024 SPF)

Compression mode               : Lossy

Delay relative to video        : -83 ms

Stream size                    : 57.9 MiB (7%)

Title                          : GOPISAHI

Language                       : Hindi


Audio #2

Format                         : AAC

Format/Info                    : Advanced Audio Codec

Duration                       : 1 h 58 min

Bit rate                       : 89.5 kb/s

Channel(s)                     : 6 channels

Channel positions              : Front: L C R, Side: L R, LFE

Sampling rate                  : 48.0 kHz

Frame rate                     : 46.875 FPS (1024 SPF)

Compression mode               : Lossy

Delay relative to video        : -83 ms

Stream size                    : 76.1 MiB (9%)

Title                          : GOPISAHI

Language                       : English


Text #1

Language                       : English


Text #2

Language                       : English

Category:Movies > Hollywood Dub
Lang:Hindi
Total Size:852.21 MB
Info Hash:446b39c146783176f6110321a4df6f639d51529c
Added By:gopisahi
Date Added:09-08-2018 02:16:07
Downloads:278

Ratings:Not Yet Rated (Log in to rate it)


Tracker:
udp://tracker.torrent.eu.org:451/announce

This Torrent also has backup trackers
URLSeedersLeechersCompleted
http://retracker.spb.ru:80/announce598143
http://t.nyaatracker.com:80/announce334920
http://retracker.mgts.by:80/announce000
http://tracker2.itzmx.com:6961/announce000


File List: 


Comments

No comments still posted

Copyright 2018 DownloadHD -|- Page Generated In 0.524603 secs.
-|- RSS Feed -|- Feed Info