Login
Username:
Password:
[Signup]
[Recover Account]


Browse Torrents

Poll


You must be logged in to view polls



Latest Torrents
Big.Brother.US.S20...
- [Size: 973.16 MB]

Running.for.Grace....
- [Size: 1.38 GB]

Undiscovered Tomb ...
- [Size: 571.70 MB]

Down.a.Dark.Hall.2...
- [Size: 1.36 GB]

Toilet.Ek.Prem.Kat...
- [Size: 6.54 GB]


Torrent Details For "Band Baaja Babuchak 2017 x264 720p HD Gujarati GOPISAHI"

Band Baaja Babuchak 2017 x264 720p HD Gujarati GOPISAHI

Download this torrent | Magnet Download
Health:
Seeds: 35
Leechers: 48
Completed: 546 
Last Checked: 06-08-2018 10:15:29
External Torrent
Update Stats



Poster
No poster



Details
Name:Band Baaja Babuchak 2017 x264 720p HD Gujarati GOPISAHI
Description:
 http://www.gopisahi.pw/

Format                         : Matroska
Format version                 : Version 4 / Version 2
File size                      : 628 MiB
Duration                       : 2 h 5 min
Overall bit rate               : 697 kb/s
Movie name                     : Band Baaja Babuchak 2017 GOPISAHI


Video
Format                         : AVC
Codec ID                       : V_MPEG4/ISO/AVC
Duration                       : 2 h 5 min
Bit rate                       : 599 kb/s
Width                          : 1 280 pixels
Height                         : 536 pixels
Display aspect ratio           : 2.40:1
Frame rate mode                : Constant
Frame rate                     : 24.000 FPS
Color space                    : YUV
Chroma subsampling             : 4:2:0
Bit depth                      : 8 bits
Scan type                      : Progressive
Bits/(Pixel*Frame)             : 0.036
Stream size                    : 539 MiB (86%)
Title                          : GOPISAHI
Writing library                : x264 core 155 r2893 b00bcaf

Audio

Format                         : AAC
Duration                       : 2 h 5 min
Bit rate                       : 96.0 kb/s
Channel(s)                     : 2 channels
Channel positions              : Front: L R
Sampling rate                  : 48.0 kHz
Frame rate                     : 46.875 FPS (1024 SPF)
Compression mode               : Lossy
Delay relative to video        : -21 ms
Stream size                    : 86.4 MiB (14%)
Title                          : GOPISAHI
Language                       : Gujarati:


Category:Music > Bollywood
Lang:Hindi
Total Size:627.72 MB
Info Hash:acf312c9789831f0b394a8c3753f0b44aa15e1ec
Added By:gopisahi
Date Added:27-07-2018 11:03:42
Downloads:447

Ratings:Not Yet Rated (Log in to rate it)


Tracker:
udp://9.rarbg.com:2740/announce


File List: 


Comments

No comments still posted

Copyright 2018 DownloadHD -|- Page Generated In 0.490673 secs.
-|- RSS Feed -|- Feed Info